Twilight 2008 Torrent

1080pTorrent twilight 2008

Ver Twilight (2008) pelicula completa online gratis en Torrent, HD, 720p, 1080p and descargar. Esta Pelicula Drama, Fantasy, Romance dirigida por Catherine Hardwicke & stars por Billy Burke, Kristen Stewart, Robert Pattinson. Descargar Juegos gratis para PC, PSP, PS2, PS3, XBOX360, WII, MAC, NDS. En todos los generos, juegos de futbol, autos, guerra, combate y mas Por Torrent!

Torrent

Info:

Twilight 2008 Download Torrent

Media Information
Media Information Code:General
Format : Matroska
Format version : Version 4 / Version 2
File size : 4.64 GiB
Duration : 2 h 1 min
Overall bit rate : 5 449 kb/s
Encoded date : UTC 2020-11-27 20:53:44
Writing application : mkvmerge v48.0.0 ('Fortress Around Your Heart') 64-bit
Writing library : libebml v1.4.0 + libmatroska v1.6.0
Cover : Yes
Attachments : cover.jpg
Video
ID : 1
Format : HEVC
Format/Info : High Efficiency Video Coding
Format profile : Main [email protected]@Main
Codec ID : V_MPEGH/ISO/HEVC
Duration : 2 h 1 min
Bit rate : 4 937 kb/s
Width : 1 920 pixels
Height : 800 pixels
Display aspect ratio : 2.40:1
Frame rate mode : Constant
Frame rate : 23.976 (24000/1001) FPS
Color space : YUV
Chroma subsampling : 4:2:0
Bit depth : 10 bits
Bits/(Pixel*Frame) : 0.134
Stream size : 4.20 GiB (91%)
Writing library : x265 3.2+9-971180b100f8:[Windows][GCC 9.2.0][64 bit] 10bit
Encoding settings : cpuid=1111039 / frame-threads=4 / numa-pools=16 / wpp / no-pmode / no-pme / no-psnr / ssim / log-level=2 / input-csp=1 / input-res=1920x800 / interlace=0 / total-frames=175252 / level-idc=0 / high-tier=1 / uhd-bd=0 / ref=4 / no-allow-non-conformance / no-repeat-headers / annexb / no-aud / no-hrd / info / hash=0 / no-temporal-layers / open-gop / min-keyint=23 / keyint=250 / gop-lookahead=0 / bframes=8 / b-adapt=2 / b-pyramid / bframe-bias=20 / rc-lookahead=80 / lookahead-slices=4 / scenecut=40 / radl=0 / no-splice / no-intra-refresh / ctu=64 / min-cu-size=8 / rect / no-amp / max-tu-size=32 / tu-inter-depth=1 / tu-intra-depth=1 / limit-tu=0 / rdoq-level=2 / dynamic-rd=0.00 / ssim-rd / signhide / no-tskip / nr-intra=0 / nr-inter=0 / constrained-intra / strong-intra-smoothing / max-merge=5 / limit-refs=3 / limit-modes / me=3 / subme=5 / merange=57 / temporal-mvp / no-frame-dup / no-hme / weightp / no-weightb / no-analyze-src-pics / deblock=-2:-2 / sao / no-sao-non-deblock / rd=4 / selective-sao=4 / early-skip / rskip / no-fast-intra / no-tskip-fast / no-cu-lossless / no-b-intra / no-splitrd-skip / rdpenalty=0 / psy-rd=2.50 / psy-rdoq=1.50 / no-rd-refine / no-lossless / cbqpoffs=0 / crqpoffs=0 / rc=crf / crf=21.5 / qcomp=0.60 / qpstep=4 / stats-write=0 / stats-read=0 / ipratio=1.40 / pbratio=1.30 / aq-mode=3 / aq-strength=0.40 / cutree / zone-count=0 / no-strict-cbr / qg-size=32 / no-rc-grain / qpmax=69 / qpmin=0 / no-const-vbv / sar=0 / overscan=0 / videoformat=5 / range=0 / colorprim=1 / transfer=1 / colormatrix=1 / chromaloc=0 / display-window=0 / cll=0,0 / min-luma=0 / max-luma=1023 / log2-max-poc-lsb=8 / vui-timing-info / vui-hrd-info / slices=1 / no-opt-qp-pps / no-opt-ref-list-length-pps / no-multi-pass-opt-rps / scenecut-bias=0.05 / no-opt-cu-delta-qp / no-aq-motion / no-hdr / no-hdr-opt / no-dhdr10-opt / no-idr-recovery-sei / analysis-reuse-level=5 / scale-factor=0 / refine-intra=0 / refine-inter=0 / refine-mv=1 / refine-ctu-distortion=0 / no-limit-sao / ctu-info=0 / no-lowpass-dct / refine-analysis-type=0 / copy-pic=1 / max-ausize-factor=1.0 / no-dynamic-refine / no-single-sei / no-hevc-aq / no-svt / no-field / qp-adaptation-range=1.00
Default : Yes
Forced : No
Color range : Limited
Color primaries : BT.709
Transfer characteristics : BT.709
Matrix coefficients : BT.709
Audio #1
ID : 2
Format : AAC
Format/Info : Advanced Audio Codec
Format profile : LC
Codec ID : A_AAC
Duration : 2 h 1 min
Bit rate : 395 kb/s
Channel(s) : 8 channels
Channel positions : Front: L C R, Side: L R, Back: L R, LFE
Sampling rate : 48.0 kHz
Frame rate : 46.875 FPS (1024 spf)
Compression mode : Lossy
Delay relative to video : 9 ms
Stream size : 344 MiB (7%)
Title : Twilight.2008.2160p.BluRay.REMUX.HEVC.DTS-HD.MA.Tr
Language : English
Default : No
Forced : No
Audio #2
ID : 3
Format : AAC
Format/Info : Advanced Audio Codec
Format profile : LC
Codec ID : A_AAC
Duration : 2 h 1 min
Bit rate : 85.8 kb/s
Channel(s) : 2 channels
Channel positions : Front: L R
Sampling rate : 48.0 kHz
Frame rate : 46.875 FPS (1024 spf)
Compression mode : Lossy
Delay relative to video : 9 ms
Stream size : 74.7 MiB (2%)
Language : Spanish
Default : No
Forced : No
Subtitle #1
ID : 4
Format : PGS
Muxing mode : zlib
Codec ID : S_HDMV/PGS
Codec ID/Info : Picture based subtitle format used on BDs/HD-DVDs
Duration : 1 h 52 min
Bit rate : 32.1 kb/s
Count of elements : 2654
Stream size : 25.9 MiB (1%)
Title : English-PGS
Language : English
Default : No
Forced : No
Subtitle #2
ID : 5
Format : VobSub
Muxing mode : zlib
Codec ID : S_VOBSUB
Codec ID/Info : Picture based subtitle format used on DVDs
Duration : 2 h 1 min
Bit rate : 10.3 kb/s
Count of elements : 1635
Stream size : 8.90 MiB (0%)
Language : English
Default : No
Forced : No
Subtitle #3
ID : 6
Format : VobSub
Muxing mode : zlib
Codec ID : S_VOBSUB
Codec ID/Info : Picture based subtitle format used on DVDs
Duration : 2 h 1 min
Bit rate : 8 082 b/s
Count of elements : 1333
Stream size : 7.01 MiB (0%)
Language : Spanish
Default : No
Forced : No
Subtitle #4
ID : 7
Format : UTF-8
Codec ID : S_TEXT/UTF8
Codec ID/Info : UTF-8 Plain Text
Duration : 2 h 1 min
Bit rate : 84 b/s
Count of elements : 1741
Stream size : 75.5 KiB (0%)
Language : Arabic
Default : No
Forced : No
Subtitle #5
ID : 8
Format : UTF-8
Codec ID : S_TEXT/UTF8
Codec ID/Info : UTF-8 Plain Text
Duration : 1 h 52 min
Bit rate : 46 b/s
Count of elements : 1428
Stream size : 38.5 KiB (0%)
Language : Chinese
Default : No
Forced : No
Subtitle #6
ID : 9
Format : UTF-8
Codec ID : S_TEXT/UTF8
Codec ID/Info : UTF-8 Plain Text
Duration : 1 h 53 min
Bit rate : 46 b/s
Count of elements : 1069
Stream size : 38.7 KiB (0%)
Language : Danish
Default : No
Forced : No
Subtitle #7
ID : 10
Format : UTF-8
Codec ID : S_TEXT/UTF8
Codec ID/Info : UTF-8 Plain Text
Duration : 1 h 52 min
Bit rate : 40 b/s
Count of elements : 1106
Stream size : 33.5 KiB (0%)
Language : Dutch
Default : No
Forced : No
Subtitle #8
ID : 11
Format : UTF-8
Codec ID : S_TEXT/UTF8
Codec ID/Info : UTF-8 Plain Text
Duration : 1 h 53 min
Bit rate : 78 b/s
Count of elements : 1296
Stream size : 64.9 KiB (0%)
Language : Persian
Default : No
Forced : No
Subtitle #9
ID : 12
Format : UTF-8
Codec ID : S_TEXT/UTF8
Codec ID/Info : UTF-8 Plain Text
Duration : 1 h 52 min
Bit rate : 62 b/s
Count of elements : 1587
Stream size : 51.5 KiB (0%)
Language : French
Default : No
Forced : No
Subtitle #10
ID : 13
Format : UTF-8
Codec ID : S_TEXT/UTF8
Codec ID/Info : UTF-8 Plain Text
Duration : 1 h 55 min
Bit rate : 67 b/s
Count of elements : 1402
Stream size : 57.1 KiB (0%)
Language : Hebrew
Default : No
Forced : No
Subtitle #11
ID : 14
Format : UTF-8
Codec ID : S_TEXT/UTF8
Codec ID/Info : UTF-8 Plain Text
Duration : 1 h 53 min
Bit rate : 82 b/s
Count of elements : 1432
Stream size : 68.9 KiB (0%)
Language : Greek
Default : No
Forced : No
Subtitle #12
ID : 15
Format : UTF-8
Codec ID : S_TEXT/UTF8
Codec ID/Info : UTF-8 Plain Text
Duration : 1 h 53 min
Bit rate : 58 b/s
Count of elements : 1478
Stream size : 48.5 KiB (0%)
Language : Italian
Default : No
Forced : No
Subtitle #13
ID : 16
Format : UTF-8
Codec ID : S_TEXT/UTF8
Codec ID/Info : UTF-8 Plain Text
Duration : 1 h 53 min
Bit rate : 49 b/s
Count of elements : 1074
Stream size : 41.3 KiB (0%)
Language : Swedish
Default : No
Forced : No
Subtitle #14
ID : 17
Format : UTF-8
Codec ID : S_TEXT/UTF8
Codec ID/Info : UTF-8 Plain Text
Duration : 1 h 53 min
Bit rate : 110 b/s
Count of elements : 1256
Stream size : 92.1 KiB (0%)
Language : Thai
Default : No
Forced : No
Subtitle #15
ID : 18
Format : UTF-8
Codec ID : S_TEXT/UTF8
Codec ID/Info : UTF-8 Plain Text
Duration : 1 h 55 min
Bit rate : 68 b/s
Count of elements : 1628
Stream size : 58.2 KiB (0%)
Language : Vietnamese
Default : No
Forced : No
Menu
00:00:00.000 : :Chapter 1
00:07:42.336 : :Chapter 2
00:16:18.310 : :Chapter 3
00:20:50.749 : :Chapter 4
00:29:48.661 : :Chapter 5
00:36:38.988 : :Chapter 6
00:44:23.118 : :Chapter 7
00:49:35.138 : :Chapter 8
00:55:01.256 : :Chapter 9
01:01:24.889 : :Chapter 10
01:11:32.871 : :Chapter 11
01:17:12.836 : :Chapter 12
01:29:07.300 : :Chapter 13
01:35:45.322 : :Chapter 14
01:46:18.497 : :Chapter 15
01:53:52.367 : :Chapter 16
Source Information Code:Release:
Twilight 2008 2160p UHD BluRay REMUX HDR HEVC Atmos-EPSiLON [59 GB]

Twilight 2008 1080p Torrent

Twilight 2008 torrents

Twilight 2008 Movie Torrent

2008

Twilight 2008 Torrent Download


http://www.imdb.com/title/tt1099212/
[FORMAT]:.......................[ MP4
[GENRE]:........................[ Adventure Drama Fantasy Romance
[FILE SIZE]:....................[ 700MB
[RESOLUTION]:...................[ 1280*528
[ASPECT RATIO]:.................[ 2.40:1
[FRAME RATE]:...................[ 23.976 fps
[LANGUAGE ]:....................[ English
[SUBTITLES]:....................[ English (SRT File)
[RUNTIME]:......................[ 2h 01mn
[SOURCE]:.......................[ 720p
Bella Swan has always been a little bit different. Never one to run with the crowd, Bella never cared about fitting in with the trendy, plastic girls at her Phoenix, Arizona high school. When her mother remarried and Bella chooses to live with her father in the rainy little town of Forks, Washington, she didn't expect much of anything to change. But things do change when she meets the mysterious and dazzlingly beautiful Edward Cullen. For Edward is nothing like any boy she's ever met. He's nothing like anyone she's ever met, period. He's intelligent and witty, and he seems to see straight into her soul. In no time at all, they are swept up in a passionate and decidedly unorthodox romance - unorthodox because Edward really isn't like the other boys. He can run faster than a mountain lion. He can stop a moving car with his bare hands. Oh, and he hasn't aged since 1918...
Screenshots: